冰冰网

 找回密码
 开放注册,禁止乱回复

只需一步,快速开始

搜索
查看: 2488|回复: 118

[转载作品] 生化危机4.2010.BluRay.1080p.x264.AC3.2Audios-DiaosMan[mp4/4G][国英/中英特效] (转)

  [复制链接]
 成长值: 2430

4万

主题

4万

帖子

1776

积分

监察员

Rank: 7Rank: 7Rank: 7

UID
45
积分
1776
冰币
13196
威望
61

版主发布组大富之家大将军

发表于 2016-5-12 13:37:13 | 显示全部楼层 |阅读模式 |        |

本片采用特效字幕来自CMCT,字幕作者:索尼。注:未经允许,不得转载,严禁盗用!

鸣谢:CMCT-索尼!

整剧均由DiaosMan个人用蓝光原盘+硬字幕x.264. mp4格式压制。为了大家更好的观赏视频DiaosMan承若绝不在字幕和视频中添加任何与影片无关的信息和水印。请大家转载时请在著名DiaosMan压制。
DiaosMan个人是对电影的爱好,希望带给大家好的东西,所以利用业余时间压制,发布时间相对较慢,但基本保证每星期发有两到三部影片或剧集。
DiaosMan压制所用视频和字幕均来自网络,如侵犯到任何个人或公司团体组织权益请及时与我留言,我将第一时间删除。

本作品非本站制作,不要求认真回复,拒绝垃圾回复


2ae7a32b2f50bf1c9abfd7e6ecdc5486.jpg

◎片  名 -  生化危机4
◎中文译名 -  Resident Evil: Afterlife
◎日  期 -  2010年11月16日 中国大陆
◎国家地区 -  美国
◎对  白 -  国语、英语
◎IMDB链接  www.aapig.com.cn www.imdb.com/title/tt1220634/
◎影片时长 -  97分钟
◎影片导演 -  保罗·安德森
◎主要演员 -  米拉·乔沃维奇,艾丽·拉特,文特沃斯·米勒,西耶娜·盖尔利,波瑞斯·科乔,肖恩·罗伯茨

◎资源介绍 - 继上一集剧情,《生化危机:战神再生》以爱丽丝在东京为开场,有着超人类特异功能以及带领着她自己的克隆人军团,爱丽丝终于面对面的对抗了她命运中的宿敌,安布雷拉公司C.E.O. 威斯克。与威斯克的对决令她失去了所有的特殊能力与军团。爱丽丝开着双人座飞机飞去了阿拉斯加的荒芜之地,踏上了寻找世界上唯一一块儿没有被T病毒影响的世外桃源,阿卡迪亚。

但是阿卡迪亚也并不若想像中那么简单纯洁的地方。唯一一个生命迹象的来源来自于她的老战友克莱尔。但是因为种种原因,克莱尔陷入了失忆当中。克莱尔,爱丽丝为了寻找答案来到了一片狼籍的洛杉矶。她在那里找到了为数不多的幸存者。从那些幸存者那听说了阿卡迪亚也许没有想像中的那么远,当然,也没有想像中的那么和平。
  随着克莱尔慢慢的恢复了她的战斗力和记忆,爱丽丝带领着她的伙伴们前往一个前所未有的救援行动。并通过这次的行动发现了所有人都始料未及的惊天大阴谋。



◎编码参数 -  
General
Complete name                   : 生化危机4:战神再生.Resident Evil:Afterlife.2010.BluRay.1080p.x264.AC3.2Audios-DiaosMan.mp4
Format                          : MPEG-4
Format profile                  : Base Media
Codec ID                        : isom
File size                       : 4.10 GiB
Duration                        : 1h 36mn
Overall bit rate                : 6 060 Kbps
Encoded date                    : UTC 2016-05-09 20:49:57
Tagged date                     : UTC 2016-05-09 20:49:57

Video
ID                              : 1
Format                          : AVC
Format/Info                     : Advanced Video Codec
Format profile                  : Baseline@L4.0
Format settings, CABAC          : No
Format settings, ReFrames       : 1 frame
Codec ID                        : avc1
Codec ID/Info                   : Advanced Video Coding
Duration                        : 1h 36mn
Bit rate mode                   : Variable
Bit rate                        : 5 162 Kbps
Maximum bit rate                : 30.2 Mbps
Width                           : 1 920 pixels
Height                          : 1 080 pixels
Display aspect ratio            : 16:9
Frame rate mode                 : Constant
Frame rate                      : 23.976 fps
Color space                     : YUV
Chroma subsampling              : 4:2:0
Bit depth                       : 8 bits
Scan type                       : Progressive
Bits/(Pixel*Frame)              : 0.104
Stream size                     : 3.49 GiB (85%)
Writing library                 : x264 core 146
Encoding settings               : opencl=1 / cabac=0 / ref=1 / deblock=1:0:0 / analyse=0x1:0x111 /me=hex / subme=2 / psy=0 / mixed_ref=0 / me_range=16 / chroma_me=1 / trellis=0/ 8x8dct=0 / cqm=0 / deadzone=21,11 / fast_pskip=1 / chroma_qp_offset=0 /threads=6 / lookahead_threads=2 / sliced_threads=0 / nr=0 / decimate=1 /interlaced=0 / bluray_compat=0 / constrained_intra=0 / bframes=0 / weightp=0 /keyint=250 / keyint_min=23 / scenecut=40 / intra_refresh=0 / rc_lookahead=10 /rc=crf / mbtree=1 / crf=20.0 / qcomp=0.60 / qpmin=0 / qpmax=69 / qpstep=4 /ip_ratio=1.40 / aq=2:1.00
Tagged date                     : UTC 2016-05-09 20:51:05

Audio #1
ID                              : 2
Format                          : AC-3
Format/Info                     : Audio Coding 3
Mode extension                  : CM (complete main)
Codec ID                        : ac-3
Duration                        : 1h 36mn
Bit rate mode                   : Constant
Bit rate                        : 640 Kbps
Maximum bit rate                : 676 Kbps
Channel(s)                      : 6 channels
Channel positions               : Front: L C R, Side: L R, LFE
Sampling rate                   : 48.0 KHz
Bit depth                       : 16 bits
Compression mode                : Lossy
Stream size                     : 443 MiB (11%)
Title                           : 国语 5.1
Language                         : Chinese
Encoded date                    : UTC 2016-05-09 20:50:48
Tagged date                     : UTC 2016-05-09 20:51:05

Audio #2
ID                              : 3
Format                          : AC-3
Format/Info                      : Audio Coding 3
Mode extension                  : CM (complete main)
Codec ID                        : ac-3
Duration                        : 1h 36mn
Bit rate mode                   : Constant
Bit rate                        : 256 Kbps
Maximum bit rate                : 270 Kbps
Channel(s)                      : 6 channels
Channel positions               : Front: L C R, Side: L R, LFE
Sampling rate                   : 48.0 KHz
Bit depth                       : 16 bits
Compression mode                 : Lossy
Stream size                     : 177 MiB (4%)
Title                           : 英语 5.1
Language                        : English
Encoded date                    : UTC 2016-05-09 20:50:58
Tagged date                     : UTC 2016-05-09 20:51:05

◎视频截图

ca8427bfd77e25aa01994fc624fe3f5d.jpg
55849561657ba9bfe2fae08857ab316c.jpg
240344026610daeb814d4c4485cdb863.jpg
06cdf334b85fb27de1e2a2f56b4546cf.jpg
338a68e8d69f70d9d953bb87e4abc473.jpg
b1fb445ab46b3f55216fd394646583e2.jpg




(下载后,扩展名改成.mp4即可)
游客,如果您要查看本帖隐藏内容请回复,   如果您想享受免回复免冰币无广告权限→→请捐助论坛

1

主题

1644

帖子

290

积分

部将

Rank: 3Rank: 3

UID
124433
积分
290
冰币
2847
威望
0
发表于 2016-5-12 14:06:23 | 显示全部楼层
谢谢分享 支持下
回复 支持 反对

使用道具 举报

0

主题

2079

帖子

1346

积分

大将

Rank: 4

UID
446384
积分
1346
冰币
14420
威望
0
发表于 2016-5-12 14:27:52 | 显示全部楼层

经典,下载收藏,谢谢楼主!
回复 支持 反对

使用道具 举报

1

主题

765

帖子

286

积分

部将

Rank: 3Rank: 3

UID
345129
积分
286
冰币
3061
威望
-1
发表于 2016-5-12 15:07:38 | 显示全部楼层
谢谢楼主分享
回复 支持 反对

使用道具 举报

0

主题

284

帖子

667

积分

大将

Rank: 4

UID
450126
积分
667
冰币
7127
威望
0
发表于 2016-5-12 15:10:08 来自手机 | 显示全部楼层
太强大了!感谢!
回复 支持 反对

使用道具 举报

0

主题

284

帖子

667

积分

大将

Rank: 4

UID
450126
积分
667
冰币
7127
威望
0
发表于 2016-5-12 15:10:29 来自手机 | 显示全部楼层
太强大了!感谢!
回复 支持 反对

使用道具 举报

3

主题

550

帖子

192

积分

中将

Rank: 2

UID
451193
积分
192
冰币
2065
威望
0
发表于 2016-5-12 15:59:38 | 显示全部楼层
最近闹片荒,发些经典大片太好了,谢谢分享
如果人
回复 支持 反对

使用道具 举报

1

主题

1584

帖子

557

积分

大将

Rank: 4

UID
358762
积分
557
冰币
5956
威望
0
发表于 2016-5-12 16:09:44 | 显示全部楼层
楼主辛苦了
回复 支持 反对

使用道具 举报

0

主题

164

帖子

121

积分

中将

Rank: 2

UID
439632
积分
121
冰币
1289
威望
0
发表于 2016-5-12 16:39:35 | 显示全部楼层
感谢分享,个人感觉这部没前三部好看
回复 支持 反对

使用道具 举报

3

主题

3210

帖子

2701

积分

元帅

Rank: 6Rank: 6

UID
322553
积分
2701
冰币
29087
威望
0
发表于 2016-5-12 16:57:55 | 显示全部楼层
经典系列,楼主辛苦了!
回复 支持 反对

使用道具 举报

本版积分规则

手机版|小黑屋|冰冰网 ( 粤ICP备10024810号-1 )

GMT+8, 2020-8-11 17:22

Powered by www.discuz.net Discuz! X3.4

© 2001-2012 Comsenz Inc sitemap a67 s80


本站影视音乐资源来自互联网免费共享,仅供交流学习之用,版权归作者本人所有,如果侵犯了您的权益,请通知我们,邮箱地址mail@aapig.com
快速回复 返回顶部 返回列表